<?xml version="1.0" standalone="no"?>
<!DOCTYPE svg PUBLIC "-//W3C//DTD SVG 1.1//EN" "http://www.w3.org/Graphics/SVG/1.1/DTD/svg11.dtd">
<svg xmlns="http://www.w3.org/2000/svg">
<metadata>Generated by Fontastic.me</metadata>
<defs>
<font id="med360icons" horiz-adv-x="512">
<font-face font-family="med360icons" units-per-em="512" ascent="480" descent="-32"/>
<missing-glyph horiz-adv-x="512" />

<glyph glyph-name="accesibility" unicode="&#97;" d="M256 512c28 0 51-23 51-51 0-28-23-51-51-51-28 0-51 23-51 51 0 28 23 51 51 51z m230-179l-153 0 0-333-51 0 0 154-52 0 0-154-51 0 0 333-153 0 0 51 460 0z"/>
<glyph glyph-name="account" unicode="&#98;" d="M256 512c-141 0-256-115-256-256 0-141 115-256 256-256 141 0 256 115 256 256 0 141-115 256-256 256z m-126-417c11 23 78 46 126 46 48 0 115-23 126-46-35-27-78-44-126-44-48 0-91 17-126 44z m289 37c-37 45-126 60-163 60-37 0-126-15-163-60-26 35-42 77-42 124 0 113 92 205 205 205 113 0 205-92 205-205 0-47-16-89-42-124z m-163 278c-50 0-90-40-90-90 0-50 40-90 90-90 50 0 90 40 90 90 0 50-40 90-90 90z m0-128c-21 0-38 17-38 38 0 21 17 38 38 38 21 0 38-17 38-38 0-21-17-38-38-38z"/>
<glyph glyph-name="add" unicode="&#99;" d="M512 219l-219 0 0-219-74 0 0 219-219 0 0 74 219 0 0 219 74 0 0-219 219 0z"/>
<glyph glyph-name="addalert" unicode="&#100;" d="M210 46c0-25 20-46 46-46 26 0 46 21 46 46z m46 350c64 0 116-52 116-117l0-163-232 0 0 163c0 65 52 117 116 117z m0 104c-19 0-35-15-35-35l0-27c-73-16-128-81-128-159l0-139-46-47 0-23 418 0 0 23-46 47 0 139c0 78-55 143-128 159l0 27c0 20-16 35-35 35z m23-151l-46 0 0-70-70 0 0-46 70 0 0-70 46 0 0 70 70 0 0 46-70 0z"/>
<glyph glyph-name="addcomment" unicode="&#101;" d="M512 461c0 28-23 51-51 51l-410 0c-28 0-51-23-51-51l0-307c0-29 23-52 51-52l359 0 102-102z m-51-337l-30 30-380 0 0 307 410 0z m-179 311l-52 0 0-102-102 0 0-51 102 0 0-103 52 0 0 103 102 0 0 51-102 0z"/>
<glyph glyph-name="addtask" unicode="&#102;" d="M465 415l-265-266-99 99 33 32 66-65 233 232z m-232-345c-103 0-186 83-186 186 0 103 83 186 186 186 36 0 70-11 99-29l34 34c-38 26-84 42-133 42-129 0-233-105-233-233 0-128 104-233 233-233 40 0 78 11 111 29l-35 35c-23-11-49-17-76-17z m163 116l-70 0 0-46 70 0 0-70 46 0 0 70 70 0 0 46-70 0 0 70-46 0z"/>
<glyph glyph-name="alarm" unicode="&#103;" d="M268 341l-36 0 0-146 115-69 19 30-98 57z m118 151l112-93-31-38-112 94z m-260 0l31-37-112-94-31 38z m130-53c-121 0-219-98-219-220 0-121 98-219 219-219 121 0 219 98 219 219 0 122-98 220-219 220z m0-390c-94 0-171 76-171 170 0 95 77 171 171 171 94 0 171-76 171-171 0-94-77-170-171-170z"/>
<glyph glyph-name="alarmadd" unicode="&#104;" d="M386 492l112-93-31-38-112 94z m-260 0l31-37-112-94-31 38z m130-53c-121 0-219-98-219-220 0-121 98-219 219-219 121 0 219 98 219 219 0 122-98 220-219 220z m0-390c-94 0-171 76-171 170 0 95 77 171 171 171 94 0 171-76 171-171 0-94-77-170-171-170z m24 268l-48 0 0-73-74 0 0-49 74 0 0-73 48 0 0 73 74 0 0 49-74 0z"/>
<glyph glyph-name="arrowback" unicode="&#105;" d="M512 288l-389 0 178 179-45 45-256-256 256-256 45 45-178 179 389 0z"/>
<glyph glyph-name="arrowcicleup" unicode="&#106;" d="M256 51c-113 0-205 92-205 205 0 113 92 205 205 205 113 0 205-92 205-205 0-113-92-205-205-205z m0-51c141 0 256 115 256 256 0 141-115 256-256 256-141 0-256-115-256-256 0-141 115-256 256-256z m-26 256l0-102 52 0 0 102 76 0-102 102-102-102z"/>
<glyph glyph-name="arrowcircledown" unicode="&#107;" d="M256 461c113 0 205-92 205-205 0-113-92-205-205-205-113 0-205 92-205 205 0 113 92 205 205 205z m0 51c-141 0-256-115-256-256 0-141 115-256 256-256 141 0 256 115 256 256 0 141-115 256-256 256z m26-256l0 102-52 0 0-102-76 0 102-102 102 102z"/>
<glyph glyph-name="arrowdownward" unicode="&#108;" d="M512 256l-45 45-179-178 0 389-64 0 0-389-179 178-45-45 256-256z"/>
<glyph glyph-name="arrowforward" unicode="&#109;" d="M256 512l-45-45 178-179-389 0 0-64 389 0-178-179 45-45 256 256z"/>
<glyph glyph-name="arrowupward" unicode="&#110;" d="M0 256l45-45 179 178 0-389 64 0 0 389 179-178 45 45-256 256z"/>
<glyph glyph-name="article" unicode="&#111;" d="M455 455l0-398-398 0 0 398z m0 57l-398 0c-31 0-57-26-57-57l0-398c0-31 26-57 57-57l398 0c31 0 57 26 57 57l0 398c0 31-26 57-57 57z m-142-398l-199 0 0 57 199 0z m85 114l-284 0 0 56 284 0z m0 113l-284 0 0 57 284 0z"/>
<glyph glyph-name="assignemnt" unicode="&#112;" d="M128 154l179 0 0-52-179 0z m0 102l256 0 0-51-256 0z m0 102l256 0 0-51-256 0z m307 103l-107 0c-11 29-39 51-72 51-33 0-61-22-72-51l-107 0c-4 0-7 0-10-1-10-2-19-7-26-14-5-5-9-11-11-17-3-6-4-12-4-19l0-359c0-7 1-14 4-20 2-6 6-11 11-16 7-7 16-12 26-14 3-1 6-1 10-1l358 0c28 0 51 23 51 51l0 359c0 28-23 51-51 51z m-179 6c10 0 19-9 19-19 0-10-9-19-19-19-10 0-19 9-19 19 0 10 9 19 19 19z m179-416l-358 0 0 359 358 0z"/>
<glyph glyph-name="attachfile" unicode="&#113;" d="M349 396l0-268c0-51-42-93-93-93-51 0-93 42-93 93l0 291c0 32 26 58 58 58 32 0 58-26 58-58l0-244c0-13-10-24-23-24-13 0-23 11-23 24l0 221-35 0 0-221c0-33 26-59 58-59 32 0 58 26 58 59l0 244c0 51-41 93-93 93-51 0-93-42-93-93l0-291c0-71 57-128 128-128 71 0 128 57 128 128l0 268z"/>
<glyph glyph-name="autorenew" unicode="&#114;" d="M256 396l0-70 93 93-93 93 0-70c-103 0-186-83-186-186 0-37 11-71 29-99l34 34c-11 19-17 41-17 65 0 77 63 140 140 140z m157-41l-34-34c11-19 17-41 17-65 0-77-63-140-140-140l0 70-93-93 93-93 0 70c103 0 186 83 186 186 0 37-11 71-29 99z"/>
<glyph glyph-name="backup" unicode="&#115;" d="M413 298c-15 73-79 129-157 129-62 0-115-35-142-87-64-6-114-61-114-127 0-70 57-128 128-128l277 0c59 0 107 48 107 107 0 56-44 102-99 106z m-8-170l-277 0c-47 0-85 38-85 85 0 44 32 81 76 85l22 2 11 21c20 39 60 63 104 63 56 0 104-40 115-95l6-32 33-2c33-2 59-30 59-63 0-35-28-64-64-64z m-234 107l54 0 0-64 62 0 0 64 54 0-85 85z"/>
<glyph glyph-name="book" unicode="&#116;" d="M410 512l-308 0c-28 0-51-23-51-51l0-410c0-28 23-51 51-51l308 0c28 0 51 23 51 51l0 410c0 28-23 51-51 51z m-231-51l51 0 0-128-25 19-26-19z m231-410l-308 0 0 410 26 0 0-231 77 58 77-58 0 231 128 0z"/>
<glyph glyph-name="bookmark" unicode="&#117;" d="M398 512l-284 0c-32 0-57-26-57-57l0-455 199 85 199-85 0 455c0 31-25 57-57 57z m0-427l-142 62-142-62 0 370 284 0z"/>
<glyph glyph-name="bookmarks" unicode="&#118;" d="M326 372l0-301-98 42-19 8-18-8-98-42 0 301z m93 140l-233 0c-26 0-46-21-46-47l232 0c26 0 47-20 47-46l0-303 46-23 0 372c0 26-20 47-46 47z m-93-93l-233 0c-26 0-46-21-46-47l0-372 162 70 163-70 0 372c0 26-21 47-46 47z"/>
<glyph glyph-name="cached" unicode="&#119;" d="M419 349l-93-93 70 0c0-77-63-140-140-140-24 0-46 6-65 17l-34-34c28-18 62-29 99-29 103 0 186 83 186 186l70 0z m-303-93c0 77 63 140 140 140 24 0 46-6 65-17l34 34c-28 18-62 29-99 29-103 0-186-83-186-186l-70 0 93-93 93 93z"/>
<glyph glyph-name="calendar" unicode="&#120;" d="M442 465l-23 0 0 47-47 0 0-47-232 0 0 47-47 0 0-47-23 0c-26 0-47-20-47-46l0-372c0-26 21-47 47-47l372 0c26 0 47 21 47 47l0 372c0 26-21 46-47 46z m0-418l-372 0 0 256 372 0z m0 302l-372 0 0 70 372 0z"/>
<glyph glyph-name="chat" unicode="&#121;" d="M51 461l410 0 0-307-380 0-30-30z m0 51c-28 0-51-23-51-51l0-461 102 102 359 0c28 0 51 23 51 52l0 307c0 28-23 51-51 51z m51-256l205 0 0-51-205 0z m0 77l308 0 0-51-308 0z m0 77l308 0 0-52-308 0z"/>
<glyph glyph-name="clear" unicode="&#122;" d="M512 460l-52 52-204-204-204 204-52-52 204-204-204-204 52-52 204 204 204-204 52 52-204 204z"/>
<glyph glyph-name="closeefullscreen" unicode="&#65;" d="M512 476l-135-136 84-84-205 0 0 205 84-84 136 135z m-476-476l136 135 84-84 0 205-205 0 84-84-135-136z"/>
<glyph glyph-name="cloud" unicode="&#66;" d="M256 384c56 0 104-40 115-95l6-32 33-2c33-2 59-30 59-63 0-35-28-64-64-64l-277 0c-47 0-85 38-85 85 0 44 32 81 76 85l22 2 11 21c20 39 60 63 104 63z m0 43c-62 0-115-35-142-87-64-6-114-61-114-127 0-70 57-128 128-128l277 0c59 0 107 48 107 107 0 56-44 102-99 106-15 73-79 129-157 129z"/>
<glyph glyph-name="clouddone" unicode="&#67;" d="M413 298c-15 73-79 129-157 129-62 0-115-35-142-87-64-6-114-61-114-127 0-70 57-128 128-128l277 0c59 0 107 48 107 107 0 56-44 102-99 106z m-8-170l-277 0c-47 0-85 38-85 85 0 44 32 81 76 85l22 2 11 21c20 39 60 63 104 63 56 0 104-40 115-95l6-32 33-2c33-2 59-30 59-63 0-35-28-64-64-64z m-192 81l-44 45-30-30 74-75 129 129-31 30z"/>
<glyph glyph-name="clouddownload" unicode="&#68;" d="M413 298c-15 73-79 129-157 129-62 0-115-35-142-87-64-6-114-61-114-127 0-70 57-128 128-128l277 0c59 0 107 48 107 107 0 56-44 102-99 106z m-8-170l-277 0c-47 0-85 38-85 85 0 44 32 81 76 85l22 2 11 21c20 39 60 63 104 63 56 0 104-40 115-95l6-32 33-2c33-2 59-30 59-63 0-35-28-64-64-64z m-118 171l-62 0 0-64-54 0 85-86 85 86-54 0z"/>
<glyph glyph-name="comment" unicode="&#69;" d="M512 461c0 28-23 51-51 51l-410 0c-28 0-51-23-51-51l0-307c0-29 23-52 51-52l359 0 102-102z m-51 0l0-337-30 30-380 0 0 307z m-359-205l308 0 0-51-308 0z m0 77l308 0 0-51-308 0z m0 77l308 0 0-52-308 0z"/>
<glyph glyph-name="connectwithoutcontact" unicode="&#70;" d="M230 205l-51 0c0 127 103 230 231 230l0-51c-99 0-180-80-180-179z m180 77l0 51c-71 0-128-58-128-128l51 0c0 42 34 77 77 77z m-282 179c0 28-23 51-51 51-29 0-51-23-51-51 0-29 22-51 51-51 28 0 51 22 51 51z m114-13l-51 0c-6-36-38-64-76-64l-77 0c-21 0-38-17-38-38l0-64 154 0 0 57c47 16 83 58 88 109z m193-320c29 0 51 23 51 51 0 29-22 51-51 51-28 0-51-22-51-51 0-28 23-51 51-51z m39-26l-77 0c-38 0-70 28-76 64l-51 0c5-51 41-93 88-108l0-58 154 0 0 64c0 21-17 38-38 38z"/>
<glyph glyph-name="contacpage" unicode="&#71;" d="M286 461l124-124 0-286-308 0 0 410z m21 51l-205 0c-28 0-51-23-51-51l0-410c0-28 23-51 51-51l308 0c28 0 51 23 51 51l0 307z m-51-307c28 0 51 23 51 51 0 28-23 51-51 51-28 0-51-23-51-51 0-28 23-51 51-51z m102-88c0 21-12 39-31 47-22 10-46 15-71 15-25 0-49-5-71-15-19-8-31-26-31-47l0-15 204 0z"/>
<glyph glyph-name="contentcopy" unicode="&#72;" d="M361 512l-280 0c-25 0-46-21-46-47l0-325 46 0 0 325 280 0z m70-93l-256 0c-26 0-47-21-47-47l0-325c0-26 21-47 47-47l256 0c25 0 46 21 46 47l0 325c0 26-21 47-46 47z m0-372l-256 0 0 325 256 0z"/>
<glyph glyph-name="contentpaste" unicode="&#73;" d="M419 465l-97 0c-10 27-36 47-66 47-30 0-56-20-66-47l-97 0c-26 0-46-20-46-46l0-372c0-26 20-47 46-47l326 0c26 0 46 21 46 47l0 372c0 26-20 46-46 46z m-163 0c13 0 23-10 23-23 0-13-10-23-23-23-13 0-23 10-23 23 0 13 10 23 23 23z m163-418l-326 0 0 372 47 0 0-70 232 0 0 70 47 0z"/>
<glyph glyph-name="createnewfolder" unicode="&#74;" d="M461 410l-205 0-51 51-154 0c-28 0-51-23-51-51l0-308c0-28 23-51 51-51l410 0c28 0 51 23 51 51l0 256c0 29-23 52-51 52z m0-308l-410 0 0 308 133 0 51-52 226 0z m-205 103l51 0 0-51 51 0 0 51 52 0 0 51-52 0 0 51-51 0 0-51-51 0z"/>
<glyph glyph-name="dashboard" unicode="&#75;" d="M455 455l0-57-114 0 0 57z m-284 0l0-171-114 0 0 171z m284-227l0-171-114 0 0 171z m-284-114l0-57-114 0 0 57z m341 398l-228 0 0-171 228 0z m-284 0l-228 0 0-284 228 0z m284-228l-228 0 0-284 228 0z m-284-113l-228 0 0-171 228 0z"/>
<glyph glyph-name="delete" unicode="&#76;" d="M370 341l0-284-228 0 0 284z m-43 171l-142 0-29-28-99 0 0-57 398 0 0 57-99 0z m100-114l-342 0 0-341c0-31 26-57 57-57l228 0c31 0 57 26 57 57z"/>
<glyph glyph-name="done" unicode="&#77;" d="M171 137l-120 119-40-40 160-159 341 341-40 40z"/>
<glyph glyph-name="download" unicode="&#78;" d="M467 331l-121 0 0 181-180 0 0-181-121 0 211-211z m-241-60l0 181 60 0 0-181 35 0-65-65-65 65z m-181-211l422 0 0-60-422 0z"/>
<glyph glyph-name="email" unicode="&#79;" d="M512 410c0 28-23 51-51 51l-410 0c-28 0-51-23-51-51l0-308c0-28 23-51 51-51l410 0c28 0 51 23 51 51z m-51 0l-205-128-205 128z m0-308l-410 0 0 256 205-128 205 128z"/>
<glyph glyph-name="emailnotification" unicode="&#80;" d="M489 350l0-210c0-26-21-47-47-47l-326 0-93-93 0 419c0 26 21 46 47 46l235 0c-2-7-2-15-2-23 0-8 0-16 2-23l-235 0 0-279 372 0 0 188c17 4 33 11 47 22z m-140 92c0-38 31-70 70-70 39 0 70 32 70 70 0 39-31 70-70 70-39 0-70-31-70-70z"/>
<glyph glyph-name="emailsend" unicode="&#81;" d="M439 475l-390 0c-27 0-49-22-49-48l0-293c0-27 22-49 49-49l195 0 0 49-195 0 0 244 195-122 195 122 0-122 49 0 0 171c0 26-22 48-49 48z m-195-170l-195 122 390 0z m130-268l-86 86 34 34 52-51 103 103 35-34z"/>
<glyph glyph-name="eventavailable" unicode="&#82;" d="M435 461l-25 0 0 51-52 0 0-51-204 0 0 51-52 0 0-51-25 0c-28 0-51-23-51-51l0-359c0-28 23-51 51-51l358 0c28 0 51 23 51 51l0 359c0 28-23 51-51 51z m0-410l-358 0 0 256 358 0z m-358 307l0 52 358 0 0-52z m142-267l152 151-27 28-125-125-54 54-27-27z"/>
<glyph glyph-name="eventnote" unicode="&#83;" d="M435 461l-25 0 0 51-52 0 0-51-204 0 0 51-52 0 0-51-25 0c-28 0-51-23-51-51l0-359c0-28 23-51 51-51l358 0c28 0 51 23 51 51l0 359c0 28-23 51-51 51z m0-410l-358 0 0 256 358 0z m-358 307l0 52 358 0 0-52z m51-102l256 0 0-51-256 0z m0-102l179 0 0-52-179 0z"/>
<glyph glyph-name="explore" unicode="&#84;" d="M256 512c-141 0-256-115-256-256 0-141 115-256 256-256 141 0 256 115 256 256 0 141-115 256-256 256z m0-461c-113 0-205 92-205 205 0 113 92 205 205 205 113 0 205-92 205-205 0-113-92-205-205-205z m-141 64l192 90 90 192-192-90z m141 169c16 0 28-12 28-28 0-16-12-28-28-28-16 0-28 12-28 28 0 16 12 28 28 28z"/>
<glyph glyph-name="favoriteblack" unicode="&#85;" d="M256 29l-37 34c-132 120-219 199-219 295 0 79 62 141 141 141 44 0 87-21 115-53 28 32 71 53 115 53 79 0 141-62 141-141 0-96-87-175-219-295z"/>
<glyph glyph-name="favoriteborder" unicode="&#86;" d="M371 499c-44 0-87-21-115-53-28 32-71 53-115 53-79 0-141-62-141-141 0-96 87-175 219-295l37-34 37 34c132 120 219 199 219 295 0 79-62 141-141 141z m-112-398l-3-2-3 2c-121 110-202 183-202 257 0 52 39 90 90 90 39 0 78-25 91-60l48 0c13 35 52 60 91 60 51 0 90-38 90-90 0-74-81-147-202-257z"/>
<glyph glyph-name="findinpage" unicode="&#87;" d="M307 512l-205 0c-28 0-51-23-51-51l0-410c0-28 23-51 51-51l308 0c28 0 51 23 51 51l0 307z m-205-51l180 0 128-128 0-220-48 47c33 50 28 117-16 161-25 25-57 37-90 37-33 0-65-12-90-37-50-50-50-131 0-180 24-25 57-38 90-38 25 0 49 7 70 21l73-73-297 0z m208-284c-14-15-34-23-54-23-20 0-40 8-54 23-14 14-23 33-23 54 0 20 8 39 23 54 14 14 34 22 54 22 20 0 40-8 54-22 14-15 23-34 23-54 0-21-8-40-23-54z"/>
<glyph glyph-name="folder" unicode="&#88;" d="M184 410l51-52 226 0 0-256-410 0 0 308z m21 51l-154 0c-28 0-51-23-51-51l0-308c0-28 23-51 51-51l410 0c28 0 51 23 51 51l0 256c0 29-23 52-51 52l-205 0z"/>
<glyph glyph-name="foldershared" unicode="&#89;" d="M461 410l-205 0-51 51-154 0c-28 0-51-23-51-51l0-308c0-28 23-51 51-51l410 0c28 0 51 23 51 51l0 256c0 29-23 52-51 52z m0-308l-410 0 0 308 133 0 51-52 226 0z m-128 128c28 0 51 23 51 52 0 28-23 51-51 51-28 0-51-23-51-51 0-29 23-52 51-52z m-103-102l205 0 0 26c0 34-68 51-102 51-34 0-103-17-103-51z"/>
<glyph glyph-name="forward5" unicode="&#90;" d="M421 205c0-85-69-154-153-154-85 0-154 69-154 154 0 85 69 153 154 153l0-102 128 128-128 128 0-102c-114 0-205-92-205-205 0-113 91-205 205-205 113 0 204 92 204 205z m-141-55c-1-2-3-4-5-5-2-1-4-1-7-1-4 0-8 1-10 4-3 2-5 6-5 10l-22 0c0-5 1-9 3-13 3-4 5-8 9-10 3-3 7-5 11-6 5-2 9-3 14-3 6 0 12 1 16 4 5 2 9 4 12 7 3 4 5 8 7 12 1 4 2 9 2 14 0 5-1 11-2 15-2 5-4 9-7 12-2 3-6 5-10 7-4 1-9 2-14 2-2 0-4 0-5 0-2 0-4-1-5-1-1-1-2-1-4-1-1-1-2-1-3-2l3 24 44 0 0 18-61 0-7-55 17-5c1 1 2 2 3 2 1 1 2 2 3 2 1 1 3 1 4 2 1 0 3 0 5 0 3 0 6 0 8-1 2-1 4-3 5-4 1-2 3-4 3-6 1-3 1-5 1-8 0-3 0-6 0-8-1-2-2-4-3-6z"/>
<glyph glyph-name="forward10" unicode="&#48;" d="M430 205c0-85-78-154-174-154-96 0-174 69-174 154 0 85 78 153 174 153l0-102 145 128-145 128 0-102c-128 0-232-92-232-205 0-113 104-205 232-205 128 0 232 92 232 205z m-206-77l0 109-2 0-52-16 0-17 30 7 0-83z m99 108c-5 2-11 3-17 3-6 0-12-1-17-3-5-2-10-5-13-8-3-4-7-9-8-15-2-6-3-13-3-21l0-19c0-8 1-15 3-21 2-6 5-11 9-15 3-3 8-6 13-8 5-2 11-3 17-3 6 0 12 1 17 3 5 2 10 5 13 8 4 4 6 9 8 15 2 6 3 13 3 21l0 19c0 8-1 15-3 21-2 6-5 11-9 15-3 3-8 6-13 8z m0-66c0-5 0-9-1-12-1-3-1-6-3-8-1-2-3-4-5-5-3 0-5-1-8-1-2 0-5 1-7 1-2 1-4 3-5 5-2 2-3 5-4 8-1 3-1 7-1 12l0 25c0 5 0 9 1 12 1 4 2 6 4 8 1 2 3 4 5 5 2 0 5 1 7 1 3 0 6-1 8-1 2-1 4-3 5-5 2-2 3-4 4-8 0-3 1-7 1-12l0-25z"/>
<glyph glyph-name="forward30" unicode="&#49;" d="M410 205c0-85-69-154-154-154-85 0-154 69-154 154 0 85 69 153 154 153l0-102 128 128-128 128 0-102c-113 0-205-92-205-205 0-113 92-205 205-205 113 0 205 92 205 205z m-191-57c-2-1-3-2-5-3-3-1-5-1-7-1-3 0-5 0-7 1-2 1-3 1-5 3-1 1-2 2-3 4-1 2-2 4-2 6l-21 0c0-6 1-10 3-14 2-4 5-8 8-10 4-3 8-5 12-6 4-1 9-2 14-2 5 0 10 1 15 2 5 2 9 4 12 6 4 3 6 7 8 10 2 4 3 9 3 14 0 6-1 11-4 16-3 4-8 7-14 10 3 1 5 2 7 4 2 2 4 3 5 6 2 2 3 4 4 6 0 2 1 5 1 7 0 5-1 9-3 13-2 5-4 8-8 10-3 3-7 5-12 6-4 1-9 2-15 2-5 0-9-1-14-2-4-1-8-3-11-6-3-2-6-5-7-9-2-4-3-8-3-13l21 0c0 2 1 4 2 6 1 1 2 2 3 3 1 1 3 2 4 3 2 1 4 1 6 1 3 0 5-1 6-1 2-1 4-2 5-3 1-1 2-3 3-5 1-1 1-3 1-5 0-5-1-8-4-11-3-3-7-4-12-4l-11 0 0-17 11 0c3 0 5 0 7-1 3-1 5-2 6-3 2-1 3-3 4-5 0-2 1-5 1-8 0-2 0-4-1-6-1-1-2-2-3-4z m99 88c-4 2-9 3-15 3-5 0-10-1-15-3-4-2-8-5-11-8-3-4-6-9-8-15-1-6-2-13-2-21l0-19c0-8 1-15 3-21 1-6 4-11 7-15 4-3 7-6 12-8 5-2 9-3 15-3 6 0 11 1 15 3 5 2 9 5 12 8 3 4 5 9 7 15 2 6 3 13 3 21l0 19c0 8-1 15-3 21-2 6-4 11-8 15-3 3-7 6-12 8z m1-66c0-5-1-9-1-12-1-3-2-6-3-8-1-2-3-4-5-5-2 0-4-1-6-1-3 0-5 1-7 1-2 1-3 3-5 5-1 2-2 5-3 8 0 3-1 7-1 12l0 25c0 5 1 9 1 12 1 4 2 6 3 8 2 2 3 4 5 5 2 0 4 1 7 1 2 0 4-1 6-1 2-1 4-3 5-5 1-2 2-4 3-8 1-3 1-7 1-12l0-25z"/>
<glyph glyph-name="fullscreen" unicode="&#50;" d="M73 183l-73 0 0-183 183 0 0 73-110 0z m-73 146l73 0 0 110 110 0 0 73-183 0z m439-256l-110 0 0-73 183 0 0 183-73 0z m-110 439l0-73 110 0 0-110 73 0 0 183z"/>
<glyph glyph-name="fullscreenexit" unicode="&#51;" d="M0 110l110 0 0-110 73 0 0 183-183 0z m110 292l-110 0 0-73 183 0 0 183-73 0z m219-402l73 0 0 110 110 0 0 73-183 0z m73 402l0 110-73 0 0-183 183 0 0 73z"/>
<glyph glyph-name="groups" unicode="&#52;" d="M85 235c24 0 43 19 43 42 0 24-19 43-43 43-23 0-42-19-42-43 0-23 19-42 42-42z m24-24c-7 1-15 2-24 2-21 0-41-4-59-12-16-7-26-22-26-40l0-33 96 0 0 34c0 18 5 35 13 49z m318 24c23 0 42 19 42 42 0 24-19 43-42 43-24 0-43-19-43-43 0-23 19-42 43-42z m85-74c0 18-10 33-26 40-18 8-38 12-59 12-9 0-17-1-24-2 8-14 13-31 13-49l0-34 96 0z m-166 60c-25 11-55 19-90 19-35 0-65-8-90-19-23-10-38-33-38-59l0-34 256 0 0 34c0 26-15 49-38 59z m-174-50c2 5 3 8 20 14 20 8 42 12 64 12 22 0 44-4 64-12 17-6 18-9 20-14z m84 170c12 0 21-9 21-21 0-12-9-21-21-21-12 0-21 9-21 21 0 12 9 21 21 21z m0 43c-35 0-64-29-64-64 0-35 29-64 64-64 35 0 64 29 64 64 0 35-29 64-64 64z"/>
<glyph glyph-name="help" unicode="&#53;" d="M256 512c-141 0-256-115-256-256 0-141 115-256 256-256 141 0 256 115 256 256 0 141-115 256-256 256z m26-435l-52 0 0 51 52 0z m53 198l-23-23c-19-19-30-34-30-73l-52 0 0 13c0 28 12 54 30 72l32 33c10 9 15 22 15 36 0 28-23 51-51 51-28 0-51-23-51-51l-51 0c0 56 45 102 102 102 57 0 102-46 102-102 0-23-9-43-23-58z"/>
<glyph glyph-name="home" unicode="&#54;" d="M256 405l128-115 0-200-51 0 0 153-154 0 0-153-51 0 0 200z m0 69l-256-231 77 0 0-205 153 0 0 154 52 0 0-154 153 0 0 205 77 0z"/>
<glyph glyph-name="info" unicode="&#55;" d="M230 384l52 0 0-51-52 0z m0-102l52 0 0-154-52 0z m26 230c-141 0-256-115-256-256 0-141 115-256 256-256 141 0 256 115 256 256 0 141-115 256-256 256z m0-461c-113 0-205 92-205 205 0 113 92 205 205 205 113 0 205-92 205-205 0-113-92-205-205-205z"/>
<glyph glyph-name="keyboardarrowdown" unicode="&#56;" d="M60 401l196-195 196 195 60-60-256-256-256 256z"/>
<glyph glyph-name="keyboardarrowleft" unicode="&#57;" d="M401 60l-195 196 195 196-60 60-256-256 256-256z"/>
<glyph glyph-name="keyboardarrowright" unicode="&#33;" d="M85 60l196 196-196 196 60 60 256-256-256-256z"/>
<glyph glyph-name="keyboardarrowup" unicode="&#34;" d="M60 111l196 195 196-195 60 60-256 256-256-256z"/>
<glyph glyph-name="libraryadd" unicode="&#35;" d="M51 410l-51 0 0-359c0-28 23-51 51-51l359 0 0 51-359 0z m410 102l-307 0c-29 0-52-23-52-51l0-307c0-29 23-52 52-52l307 0c28 0 51 23 51 52l0 307c0 28-23 51-51 51z m0-358l-307 0 0 307 307 0z m-179 51l51 0 0 77 77 0 0 51-77 0 0 77-51 0 0-77-77 0 0-51 77 0z"/>
<glyph glyph-name="librarybooks" unicode="&#36;" d="M51 410l-51 0 0-359c0-28 23-51 51-51l359 0 0 51-359 0z m410 102l-307 0c-29 0-52-23-52-51l0-307c0-29 23-52 52-52l307 0c28 0 51 23 51 52l0 307c0 28-23 51-51 51z m0-358l-307 0 0 307 307 0z m-256 179l205 0 0-51-205 0z m0-77l102 0 0-51-102 0z m0 154l205 0 0-52-205 0z"/>
<glyph glyph-name="like" unicode="&#37;" d="M280 390l-12-62c-3-12 0-25 8-35 9-10 21-16 33-16l118 0 0-23-55-126-173 0c-4 0-7 3-7 7l0 168z m19 79l-137-136c-8-9-13-19-13-31l0-167c0-27 23-50 50-50l173 0c15 0 29 8 37 21l57 131c2 6 3 11 3 17l0 23c0 24-19 43-42 43l-118 0 20 99c1 5 0 10-2 14-5 10-11 19-19 26z m-214-149l-42 0 0-235 42 0c12 0 22 10 22 22l0 192c0 11-10 21-22 21z"/>
<glyph glyph-name="list" unicode="&#38;" d="M0 228l57 0 0 56-57 0z m0-114l57 0 0 57-57 0z m0 227l57 0 0 57-57 0z m114-113l398 0 0 56-398 0z m0-114l398 0 0 57-398 0z m0 284l0-57 398 0 0 57z m-114-170l57 0 0 56-57 0z m0-114l57 0 0 57-57 0z m0 227l57 0 0 57-57 0z m114-113l398 0 0 56-398 0z m0-114l398 0 0 57-398 0z m0 284l0-57 398 0 0 57z"/>
<glyph glyph-name="menu" unicode="&#39;" d="M0 85l512 0 0 57-512 0z m0 143l512 0 0 56-512 0z m0 199l0-57 512 0 0 57z"/>
<glyph glyph-name="menuopen" unicode="&#40;" d="M0 85l370 0 0 57-370 0z m0 143l284 0 0 56-284 0z m0 199l0-57 370 0 0 57z m512-273l-102 102 102 102-40 40-142-142 142-142z"/>
<glyph glyph-name="message" unicode="&#41;" d="M51 461l410 0 0-307-380 0-30-30z m0 51c-28 0-51-23-51-51l0-461 102 102 359 0c28 0 51 23 51 52l0 307c0 28-23 51-51 51z m51-256l308 0 0-51-308 0z m0 77l308 0 0-51-308 0z m0 77l308 0 0-52-308 0z"/>
<glyph glyph-name="messagesend" unicode="&#42;" d="M244 110l-146 0-98-98 0 439c0 27 22 49 49 49l390 0c27 0 49-22 49-49l0-171-49 0 0 171-390 0 0-293 195 0z m268 89l-34 34-104-103-51 52-35-35 86-86z"/>
<glyph glyph-name="mic" unicode="&#43;" d="M256 189c45 0 81 36 81 80l0 162c0 45-36 81-81 81-45 0-81-36-81-81l0-162c0-44 36-80 81-80z m135 80c0-74-61-134-135-134-74 0-135 60-135 134l-54 0c0-95 71-173 162-186l0-83 54 0 0 83c91 13 162 91 162 186z"/>
<glyph glyph-name="micnone" unicode="&#44;" d="M256 189c45 0 81 36 81 80l0 162c0 45-36 81-81 81-45 0-81-36-81-81l0-162c0-44 36-80 81-80z m-27 242c0 15 12 27 27 27 15 0 27-12 27-27l0-162c0-14-12-26-27-26-15 0-27 12-27 26z m162-162c0-74-61-134-135-134-74 0-135 60-135 134l-54 0c0-95 71-173 162-186l0-83 54 0 0 83c91 13 162 91 162 186z"/>
<glyph glyph-name="morevert" unicode="&#45;" d="M256 384c35 0 64 29 64 64 0 35-29 64-64 64-35 0-64-29-64-64 0-35 29-64 64-64z m0-64c-35 0-64-29-64-64 0-35 29-64 64-64 35 0 64 29 64 64 0 35-29 64-64 64z m0-192c-35 0-64-29-64-64 0-35 29-64 64-64 35 0 64 29 64 64 0 35-29 64-64 64z"/>
<glyph glyph-name="nolike" unicode="&#46;" d="M232 122l12 62c3 12 0 25-8 35-9 10-21 16-33 16l-118 0 0 23 55 126 173 0c4 0 7-3 7-7l0-168z m-19-79l137 136c8 9 13 19 13 31l0 167c0 27-23 50-50 50l-173 0c-15 0-29-8-37-21l-57-131c-2-6-3-11-3-17l0-23c0-24 19-43 42-43l118 0-20-99c-1-5 0-10 2-14 5-10 11-19 19-26z m214 149l42 0 0 235-42 0c-12 0-22-10-22-22l0-192c0-11 10-21 22-21z"/>
<glyph glyph-name="notifications" unicode="&#47;" d="M256 0c28 0 51 23 51 51l-102 0c0-28 23-51 51-51z m154 154l0 128c0 78-42 144-116 161l0 18c0 21-17 38-38 38-21 0-38-17-38-38l0-18c-74-17-116-83-116-161l0-128-51-52 0-25 410 0 0 25z m-52-26l-204 0 0 154c0 63 38 115 102 115 64 0 102-52 102-115z"/>
<glyph glyph-name="notificationsactive" unicode="&#58;" d="M256 0c28 0 51 23 51 51l-102 0c0-28 23-51 51-51z m154 154l0 128c0 78-42 144-116 161l0 18c0 21-17 38-38 38-21 0-38-17-38-38l0-18c-74-17-116-83-116-161l0-128-51-52 0-25 410 0 0 25z m-52-26l-204 0 0 154c0 63 38 115 102 115 64 0 102-52 102-115z m-215 331l-37 36c-61-46-102-119-105-201l51 0c4 68 39 128 91 165z m317-165l51 0c-4 82-44 155-105 201l-37-36c52-37 87-97 91-165z"/>
<glyph glyph-name="notificationsoff" unicode="&#59;" d="M230 0c29 0 52 23 52 51l-103 0c0-28 23-51 51-51z m0 397c64 0 103-52 103-115l0-3 51-51 0 54c0 78-42 144-115 161l0 18c0 21-17 38-39 38-21 0-38-17-38-38l0-18c-6-1-12-3-18-5l42-42c5 0 10 1 14 1z m-168 80l-36-36 72-72c-14-25-21-55-21-87l0-128-51-52 0-25 364 0 45-45 36 36z m271-349l-205 0 0 154c0 17 3 33 9 48l196-196z"/>
<glyph glyph-name="openinfull" unicode="&#60;" d="M512 284l0 228-228 0 94-94-284-284-94 94 0-228 228 0-94 94 284 284z"/>
<glyph glyph-name="pausecirclefilled" unicode="&#61;" d="M256 512c-141 0-256-115-256-256 0-141 115-256 256-256 141 0 256 115 256 256 0 141-115 256-256 256z m-26-358l-51 0 0 204 51 0z m103 0l-51 0 0 204 51 0z"/>
<glyph glyph-name="pausecircleoutline" unicode="&#62;" d="M179 154l51 0 0 204-51 0z m77 358c-141 0-256-115-256-256 0-141 115-256 256-256 141 0 256 115 256 256 0 141-115 256-256 256z m0-461c-113 0-205 92-205 205 0 113 92 205 205 205 113 0 205-92 205-205 0-113-92-205-205-205z m26 103l51 0 0 204-51 0z"/>
<glyph glyph-name="playcirclefilled" unicode="&#63;" d="M256 512c-141 0-256-115-256-256 0-141 115-256 256-256 141 0 256 115 256 256 0 141-115 256-256 256z m-51-371l0 230 153-115z"/>
<glyph glyph-name="playcircleoutline" unicode="&#64;" d="M205 141l153 115-153 115z m51 371c-141 0-256-115-256-256 0-141 115-256 256-256 141 0 256 115 256 256 0 141-115 256-256 256z m0-461c-113 0-205 92-205 205 0 113 92 205 205 205 113 0 205-92 205-205 0-113-92-205-205-205z"/>
<glyph glyph-name="playlistadd" unicode="&#91;" d="M307 333l-307 0 0-51 307 0z m0 102l-307 0 0-51 307 0z m103-205l0 103-52 0 0-103-102 0 0-51 102 0 0-102 52 0 0 102 102 0 0 51z m-410-51l205 0 0 51-205 0z"/>
<glyph glyph-name="playlistaddcheck" unicode="&#93;" d="M293 329l-293 0 0-49 293 0z m0 98l-293 0 0-49 293 0z m-293-244l195 0 0 49-195 0z m475 110l37-37-170-171-110 110 36 37 74-74z"/>
<glyph glyph-name="playlistplay" unicode="&#94;" d="M0 358l410 0 0-68-410 0z m0 137l410 0 0-68-410 0z m0-273l273 0 0-68-273 0z m341 0l0-205 171 102z"/>
<glyph glyph-name="questionanswer" unicode="&#95;" d="M333 461l0-179-252 0-30-30 0 209z m25 51l-332 0c-14 0-26-12-26-26l0-358 102 102 256 0c14 0 26 12 26 26l0 230c0 14-12 26-26 26z m128-102l-51 0 0-231-333 0 0-51c0-14 12-26 26-26l282 0 102-102 0 384c0 14-12 26-26 26z"/>
<glyph glyph-name="redo" unicode="&#96;" d="M424 278c-45 39-103 63-168 63-113 0-209-74-243-176l58-19c25 78 98 134 185 134 48 0 91-17 125-45l-88-89 219 0 0 220z"/>
<glyph glyph-name="refresh" unicode="&#123;" d="M437 437c-47 46-110 75-181 75-141 0-256-115-256-256 0-141 115-256 256-256 119 0 219 82 247 192l-66 0c-26-75-97-128-181-128-106 0-192 86-192 192 0 106 86 192 192 192 53 0 100-22 135-57l-103-103 224 0 0 224z"/>
<glyph glyph-name="remove" unicode="&#124;" d="M512 219l-512 0 0 74 512 0z"/>
<glyph glyph-name="replay5" unicode="&#125;" d="M256 410l0 102-128-128 128-128 0 102c85 0 154-68 154-153 0-85-69-154-154-154-85 0-154 69-154 154l-51 0c0-113 92-205 205-205 113 0 205 92 205 205 0 113-92 205-205 205z m-34-228l7 55 61 0 0-18-43 0-3-23c0 0 2 0 3 1 1 0 2 1 3 1 2 0 3 1 5 1 2 0 3 1 5 1 5 0 10-1 14-3 4-2 8-4 11-7 2-3 5-7 6-12 1-4 2-9 2-15 0-5 0-9-2-14-1-4-4-8-7-11-3-4-7-6-11-8-5-2-10-3-17-3-4 0-9 0-13 2-5 1-9 3-12 6-4 2-6 6-8 10-2 4-4 8-4 13l22 0c0-4 2-8 5-10 3-2 6-4 11-4 2 0 5 1 6 2 2 1 4 2 5 4 1 2 2 4 3 6 1 3 1 6 1 8 0 3-1 6-1 8-1 3-2 5-4 6-1 2-3 4-5 4-2 1-5 2-8 2-2 0-4-1-5-1-1 0-3-1-4-1-1-1-2-2-3-2-1-1-2-2-2-2z"/>
<glyph glyph-name="replay10" unicode="&#126;" d="M269 410l0 102-128-128 128-128 0 102c84 0 153-68 153-153 0-85-69-154-153-154-85 0-154 69-154 154l-51 0c0-113 91-205 205-205 113 0 204 92 204 205 0 113-91 205-204 205z m-29-282l-21 0 0 83-26-7 0 17 45 16 2 0z m110 45c0-8-1-15-3-21-1-6-4-11-7-15-3-3-7-6-12-8-4-2-9-3-15-3-5 0-10 1-15 3-4 2-8 5-12 8-3 4-5 9-7 15-2 6-3 13-3 21l0 19c0 8 1 15 3 21 1 6 4 11 7 15 3 3 7 6 11 8 5 2 10 3 16 3 5 0 10-1 15-3 4-2 8-5 11-8 4-4 6-9 8-15 2-6 3-13 3-21z m-22 22c0 5 0 9-1 12-1 4-2 6-3 8-1 2-3 4-5 5-2 0-4 1-6 1-2 0-5-1-7-1-1-1-3-3-4-5-2-2-3-4-4-8 0-3-1-7-1-12l0-25c0-5 1-9 1-12 1-3 2-6 4-8 1-2 2-4 4-5 2 0 5-1 7-1 2 0 4 1 6 1 2 1 4 3 5 5 1 2 2 5 3 8 0 3 1 7 1 12l0 25z"/>
<glyph glyph-name="replay30" unicode="&#92;" d="M256 410l0 102-128-128 128-128 0 102c85 0 154-68 154-153 0-85-69-154-154-154-85 0-154 69-154 154l-51 0c0-113 92-205 205-205 113 0 205 92 205 205 0 113-92 205-205 205z m-62-218l11 0c5 0 10 2 12 4 3 3 4 7 4 11 0 2 0 4-1 6 0 2-1 3-2 4-2 2-3 3-5 3-2 1-4 1-6 1-2 0-4 0-6-1-2 0-3-1-5-2-1-1-2-2-3-4 0-2-1-3-1-5l-22 0c0 5 1 9 3 12 2 4 4 7 8 10 3 2 7 4 11 6 4 1 9 2 14 2 5 0 10-1 15-2 5-2 8-4 12-6 3-3 6-6 7-10 2-4 3-9 3-14 0-2 0-4-1-7-1-2-2-4-3-6-2-2-3-4-5-6-2-1-5-3-7-4 6-2 10-5 13-10 3-5 5-10 5-16 0-5-1-9-3-13-2-4-5-8-8-10-4-3-8-5-13-6-4-2-9-2-15-2-5 0-9 0-13 2-5 1-9 3-12 5-4 3-7 6-9 10-2 4-3 9-3 14l22 0c0-2 0-4 1-5 1-2 2-3 4-5 1-1 3-2 5-3 2 0 4-1 6-1 3 0 5 1 7 1 2 1 4 2 5 3 1 2 3 3 3 5 1 2 1 4 1 6 0 3 0 6-1 8-1 2-2 3-3 5-2 1-4 2-6 3-2 0-5 1-7 1l-12 0z m146-19c0-8 0-15-2-21-2-6-4-11-8-15-3-3-7-6-11-8-4-2-9-3-15-3-6 0-11 1-15 3-5 2-9 5-12 8-3 4-6 9-8 15-1 6-3 13-3 21l0 19c0 8 1 15 3 21 2 6 4 11 7 15 4 3 8 6 12 8 4 2 9 3 15 3 6 0 11-1 15-3 5-2 9-5 12-8 3-4 6-9 8-15 1-6 2-13 2-21z m-21 22c0 5-1 9-1 12-1 4-2 6-3 8-2 2-3 4-5 5-2 0-4 1-7 1-2 0-4-1-6-1-2-1-4-3-5-5-1-2-2-4-3-8-1-3-1-7-1-12l0-25c0-5 0-9 1-12 1-3 2-6 3-8 1-2 3-4 5-5 2 0 4-1 6-1 3 0 5 1 7 1 2 1 3 3 5 5 1 2 2 5 2 8 1 3 1 7 1 12l0 25z"/>
<glyph glyph-name="reply" unicode="&#57344;" d="M199 356l0 113-199-199 199-199 0 117c142 0 242-46 313-145-28 142-114 284-313 313z"/>
<glyph glyph-name="replyall" unicode="&#57345;" d="M149 352l0 64-149-149 149-150 0 64-85 86z m128-21l0 85-149-149 149-150 0 88c107 0 182-34 235-109-21 107-85 213-235 235z"/>
<glyph glyph-name="restore" unicode="&#57346;" d="M293 475c-122 0-220-98-220-219l-73 0 98-97 97 97-73 0c0 94 76 171 171 171 94 0 170-77 170-171 0-94-76-171-170-171-47 0-90 20-121 51l-34-35c39-40 94-64 155-64 121 0 219 98 219 219 0 121-98 219-219 219z m-25-121l0-122 104-62 19 31-86 51 0 102z"/>
<glyph glyph-name="room" unicode="&#57347;" d="M256 512c-99 0-179-80-179-179 0-135 179-333 179-333 0 0 179 198 179 333 0 99-80 179-179 179z m-128-179c0 70 57 128 128 128 71 0 128-58 128-128 0-74-74-184-128-253-53 68-128 180-128 253z"/>
<glyph glyph-name="search" unicode="&#57348;" d="M356 199l-23 0-8 8c28 32 45 74 45 120 0 102-83 185-185 185-102 0-185-83-185-185 0-102 83-185 185-185 46 0 88 17 120 45l8-8 0-23 142-141 42 42z m-171 0c-71 0-128 57-128 128 0 71 57 128 128 128 71 0 128-57 128-128 0-71-57-128-128-128z"/>
<glyph glyph-name="settings" unicode="&#57349;" d="M446 231c1 8 2 16 2 25 0 9-1 17-2 25l54 42c5 4 6 11 3 17l-51 88c-2 4-7 7-11 7-2 0-3-1-5-1l-63-26c-14 11-28 19-44 25l-9 68c-1 6-6 11-13 11l-102 0c-7 0-12-5-13-11l-9-68c-16-6-30-15-44-25l-63 26c-2 0-4 1-5 1-4 0-9-3-11-7l-51-88c-4-6-2-13 3-17l54-42c-1-8-2-17-2-25 0-8 1-17 2-25l-54-42c-5-4-6-11-3-17l51-88c2-4 7-7 11-7 2 0 3 1 5 1l63 26c14-11 28-19 44-25l9-68c1-6 6-11 13-11l102 0c7 0 12 5 13 11l9 68c16 6 30 15 44 25l63-26c2 0 4-1 5-1 4 0 9 3 11 7l51 88c3 6 2 13-3 17z m-50 44c1-8 1-14 1-19 0-5-1-11-1-19l-4-29 23-18 27-21-18-31-32 13-27 11-23-18c-11-8-21-14-32-18l-27-11-4-29-5-35-36 0-5 35-4 29-27 11c-11 4-21 10-32 18l-23 18-27-11-32-13-18 31 27 21 23 18-4 29c0 8-1 14-1 19 0 5 1 11 1 19l4 29-23 18-27 21 18 31 32-13 27-11 23 18c11 8 21 14 32 18l27 11 4 29 5 35 36 0 5-35 4-29 27-11c11-4 21-10 31-18l24-18 27 11 32 13 18-31-27-21-23-18z m-140 83c-57 0-102-45-102-102 0-57 45-102 102-102 57 0 102 45 102 102 0 57-45 102-102 102z m0-153c-28 0-51 23-51 51 0 28 23 51 51 51 28 0 51-23 51-51 0-28-23-51-51-51z"/>
<glyph glyph-name="share" unicode="&#57350;" d="M410 152c-20 0-37-8-51-20l-182 106c1 6 2 12 2 18 0 6-1 12-2 18l180 105c14-13 32-21 53-21 42 0 76 35 76 77 0 43-34 77-76 77-43 0-77-34-77-77 0-6 1-12 2-18l-180-105c-14 13-32 21-53 21-42 0-76-35-76-77 0-42 34-77 76-77 21 0 39 8 53 21l182-107c-1-5-2-11-2-16 0-41 33-75 75-75 41 0 74 34 74 75 0 41-33 75-74 75z m0 309c14 0 25-12 25-26 0-14-11-25-25-25-14 0-26 11-26 25 0 14 12 26 26 26z m-308-231c-14 0-25 12-25 26 0 14 11 26 25 26 14 0 26-12 26-26 0-14-12-26-26-26z m308-179c-14 0-26 11-26 25 0 14 12 26 26 26 14 0 25-12 25-26 0-14-11-25-25-25z"/>
<glyph glyph-name="shoppingcart" unicode="&#57351;" d="M254 317l48 0 0 73 73 0 0 49-73 0 0 73-48 0 0-73-72 0 0-49 72 0z m-97-219c-26 0-48-22-48-49 0-27 22-49 48-49 27 0 49 22 49 49 0 27-22 49-49 49z m242 0c-26 0-48-22-48-49 0-27 22-49 48-49 27 0 49 22 49 49 0 27-22 49-49 49z m-238 79l1 3 22 39 180 0c18 0 34 10 42 26l94 170-42 24-1 0-26-49-67-122-170 0-3 7-54 115-23 49-23 49-79 0 0-49 49 0 87-185-33-60c-4-7-6-15-6-23 0-27 22-49 48-49l291 0 0 49-281 0c-3 0-6 2-6 6z"/>
<glyph glyph-name="skipnext" unicode="&#57352;" d="M0 0l363 256-363 256z m85 347l130-91-130-91z m342 165l85 0 0-512-85 0z"/>
<glyph glyph-name="skipprevious" unicode="&#57353;" d="M0 512l85 0 0-512-85 0z m149-256l363-256 0 512z m278-91l-130 91 130 91z"/>
<glyph glyph-name="source" unicode="&#57354;" d="M461 410l-205 0-51 51-154 0c-28 0-51-23-51-51l0-308c0-28 23-51 51-51l410 0c28 0 51 23 51 51l0 256c0 29-23 52-51 52z m0-308l-410 0 0 308 133 0 51-52 226 0z m-51 154l-308 0 0 51 308 0z m-103-102l-205 0 0 51 205 0z"/>
<glyph glyph-name="supervisoraccount" unicode="&#57355;" d="M179 256c50 0 90 40 90 90 0 49-40 89-90 89-49 0-89-40-89-89 0-50 40-90 89-90z m0 128c21 0 39-17 39-38 0-22-18-39-39-39-21 0-38 17-38 39 0 21 17 38 38 38z m1-256l-109 0c25 13 69 26 108 26 3 0 6-1 9-1 9 19 24 34 42 47-19 3-36 5-51 5-60 0-179-30-179-90l0-38 179 0 0 38c0 5 1 9 1 13z m191 64c-47 0-141-26-141-77l0-38 282 0 0 38c0 51-94 77-141 77z m31 47c20 11 33 31 33 55 0 36-28 64-64 64-35 0-64-28-64-64 0-24 14-44 33-55 9-6 20-9 31-9 11 0 22 3 31 9z"/>
<glyph glyph-name="today" unicode="&#57356;" d="M435 461l-25 0 0 51-52 0 0-51-204 0 0 51-52 0 0-51-25 0c-29 0-51-23-51-51l0-359c0-28 22-51 51-51l358 0c28 0 51 23 51 51l0 359c0 28-23 51-51 51z m0-410l-358 0 0 256 358 0z m0 307l-358 0 0 52 358 0z m-307-102l128 0 0-128-128 0z"/>
<glyph glyph-name="trendingdown" unicode="&#57357;" d="M341 128l49 49-104 104-85-85-158 158 30 30 128-128 85 85 134-134 49 49 0-128z"/>
<glyph glyph-name="trendingup" unicode="&#57358;" d="M358 410l59-59-125-125-102 102-190-190 36-36 154 154 102-102 161 161 59-59 0 154z"/>
<glyph glyph-name="upload" unicode="&#57360;" d="M166 120l180 0 0 181 121 0-211 211-211-211 121 0z m90 307l65-66-35 0 0-180-60 0 0 180-35 0z m-211-367l422 0 0-60-422 0z"/>
<glyph glyph-name="vector" unicode="&#57361;" d="M256 512c-141 0-256-115-256-256 0-141 115-256 256-256 141 0 256 115 256 256 0 141-115 256-256 256z m0-461c-113 0-205 92-205 205 0 113 92 205 205 205 113 0 205-92 205-205 0-113-92-205-205-205z"/>
<glyph glyph-name="volumedown" unicode="&#57362;" d="M384 385l0-258c47 24 80 72 80 129 0 57-33 105-80 129z m-352-33l0-192 128 0 160-160 0 512-160-160z m224 5l0-202-69 69-91 0 0 64 91 0z"/>
<glyph glyph-name="volumemute" unicode="&#57363;" d="M336 357l0-202-69 69-91 0 0 64 91 0z m64 155l-160-160-128 0 0-192 128 0 160-160z"/>
<glyph glyph-name="warningamber" unicode="&#57364;" d="M62 235l14 0 0-14-14 0z m0 56l14 0 0-42-14 0z m7 34c-38 0-69-31-69-69 0-38 31-69 69-69 38 0 69 31 69 69 0 38-31 69-69 69z m0-124c-30 0-55 24-55 55 0 31 25 55 55 55 31 0 55-24 55-55 0-31-24-55-55-55z"/>
<glyph glyph-name="watchlater" unicode="&#57365;" d="M256 512c-141 0-256-115-256-256 0-141 115-256 256-256 141 0 256 115 256 256 0 141-115 256-256 256z m0-461c-113 0-205 92-205 205 0 113 92 205 205 205 113 0 205-92 205-205 0-113-92-205-205-205z m13 333l-39 0 0-154 134-82 20 34-115 69z"/>
</font>
</defs>
</svg>
